Darkest Hour 2017 Movies DVDScr x264 Clean Audio AAC with Sample ...

  • Category Movies
  • Type h.264/x264
  • Language English
  • Total size 705.8 MB
  • Uploaded By nehalpuja
  • Downloads 221
  • Last checked 3 days ago
  • Date uploaded 1 week ago
  • Seeders 45
  • Leechers 16

Darkest Hour

DramaHistoryWar

A thrilling and inspiring true story begins on the eve of World War II as, within days of becoming Prime Minister of Great Britain, Winston Churchill must face one of his most turbulent and defining trials: exploring a negotiated peace treaty with Nazi Germany, or standing firm to fight for the ideals, liberty and freedom of a nation. As the unstoppable Nazi forces roll across Western Europe and the threat of invasion is imminent, and with an unprepared public, a skeptical King, and his own party plotting against him, Churchill must withstand his darkest hour, rally a nation, and attempt to change the course of world history.

Infohash : 38C4BDD0AF24D321498D4D81E2ECA1FDF0494EE7

Darkest Hour 2017 Movies DVDScr x264 Clean Audio AAC New Source with Sample ☻rDX☻
===============================================================================================

SCREEN SHOTS:



or

http://postimage.co.nr/2018/1/ebay/1.html

File size                                : 697 MiB
Duration                                 : 2 h 4 min
Overall bit rate                         : 780 kb/s
Movie name                               : Darkest Hour 2017 Movies DVDScr x264 Clean Audio AAC New Source ☻rDX☻

Video
ID                                       : 2
Format                                   : AVC
Format/Info                              : Advanced Video Codec
Format profile                           : [email protected]
Format settings, CABAC                   : Yes
Format settings, ReFrames                : 4 frames
Codec ID                                 : V_MPEG4/ISO/AVC
Duration                                 : 2 h 4 min
Bit rate                                 : 522 kb/s
Width                                    : 720 pixels
Height                                   : 384 pixels
Display aspect ratio                     : 1.85:1
Frame rate mode                          : Constant
Frame rate                               : 30.000 FPS
Color space                              : YUV
Chroma subsampling                       : 4:2:0
Bit depth                                : 8 bits
Scan type                                : Progressive
Bits/(Pixel*Frame)                       : 0.063
Stream size                              : 454 MiB (65%)
Title                                    : ☻rDX☻
Writing library                          : x264

Audio
ID                                       : 1
Format                                   : AC-3
Format/Info                              : Audio Coding 3
Mode extension                           : CM (complete main)
Format settings, Endianness              : Big
Codec ID                                 : A_AC3
Duration                                 : 2 h 4 min
Bit rate mode                            : Constant
Bit rate                                 : 256 kb/s
Channel(s)                               : 2 channels
Channel positions                        : Front: L R
Sampling rate                            : 48.0 kHz
Frame rate                               : 31.250 FPS (1536 spf)
Bit depth                                : 16 bits
Compression mode                         : Lossy
Stream size                              : 229 MiB (33%)
Title                                    : ☻rDX☻
Language                                 : English
Default                                  : Yes
Forced                                   : No



IMDB                                     : http://www.imdb.com/title/tt4555426

Files:

Darkest Hour 2017 Movies DVDScr x264 Clean Audio AAC New Source with Sample ☻rDX☻
  • Sample ~ Darkest Hour 2017 Movies DVDScr x264 Clean Audio AAC New Source ☻rDX☻.mkv (8.6 MB)
  • Darkest Hour 2017 Movies DVDScr x264 Clean Audio AAC New Source ☻rDX☻.mkv (697.1 MB)

There are currently no comments. Feel free to leave one :)

Code:

  • udp://tracker.coppersurfer.tk:6969/announce
  • udp://tracker.openbittorrent.com:80/announce
  • udp://glotorrents.pw:6969/announce
  • udp://tracker.publicbt.com:80/announce
  • http://retracker.krs-ix.ru/announce
  • udp://tracker.pomf.se:80/announce
  • udp://explodie.org:6969/announce
  • http://mgtracker.org:2710/announce
  • http://tracker.aletorrenty.pl:2710/announce
  • http://tracker.btcake.com/announce
  • udp://tracker.openbittorrent.com:80/announce
  • udp://tracker.leechers-paradise.org:6969/announce
  • udp://coppersurfer.tk:6969/announce